#TITLE:Mendes;
#SUBTITLE:SDO China lv21 - [N]hok[Q] Simfile;
#ARTIST:Humanoid;
#TITLETRANSLIT:;
#SUBTITLETRANSLIT:;
#ARTISTTRANSLIT:;
#CREDIT:[N]hok[Q];
#BANNER:mendes-bn.jpg;
#BACKGROUND:mendes-bg.jpg;
#LYRICSPATH:;
#CDTITLE:cd.png;
#MUSIC:mendes.ogg;
#OFFSET:0.000;
#SAMPLESTART:50.357;
#SAMPLELENGTH:11.429;
#SELECTABLE:YES;
#BPMS:0.000=168.000,111.000=84.000,112.000=168.000,121.000=84.000,122.000=168.000,133.000=84.000,136.000=42.000,137.000=84.000,161.000=168.000,209.000=84.000,211.000=168.000,269.000=84.000,271.000=168.000,271.500=84.011,271.625=168.007,272.000=168.000;
#STOPS:;
#BGCHANGES:;
// cache tags:
#FIRSTBEAT:4.000;
#LASTBEAT:280.000;
#SONGFILENAME:Songs/je/Mendes/mendes.sm;
#HASMUSIC:1;
#HASBANNER:1;
#MUSICLENGTH:116.103;
// end cache tags

//---------------dance-single - ----------------
#NOTES:
     dance-single:
     :
     Hard:
     21:
     1.000,1.000,1.000,0.345,1.000,860.000,239.000,40.000,0.000,49.000:
0000
0000
0000
0000
,
1100
0010
0001
0010
0100
0010
0001
0010
0100
0010
0001
0010
0100
0010
0001
0010
,
0100
0010
0001
0010
0100
0010
0001
0010
1000
0100
0001
0010
0001
0100
0010
0100
,
1000
0010
0001
0010
1000
0010
0001
0010
1000
0010
0001
0010
1000
0010
0001
0010
,
1100
0010
0101
0010
1100
0010
0101
0010
1001
0100
0011
1000
0011
0100
1010
0001
,
1100
0010
0001
0010
0100
0010
0001
0010
0100
0010
0001
0010
0100
0010
0001
0010
,
0100
0010
0001
0010
0100
0010
0001
0010
1000
0100
0001
0010
1001
0100
0010
0100
,
1001
0010
0001
0010
1000
0010
0001
0010
1100
0010
0001
0010
1000
0010
0001
0010
,
1100
0010
0001
0010
1100
0010
0001
0010
1001
0100
0010
1000
0001
0100
0010
1000
,
0101
0010
0101
1000
0011
0100
1010
0100
1000
0010
0100
0000
1001
0010
0100
0000
,
1000
0010
0100
0000
1001
0010
0100
0000
1000
0010
0100
0000
1001
0010
0100
0000
,
1000
0011
0100
0000
1001
0010
0100
0000
1000
0010
0100
0000
1001
0010
0100
0000
,
1000
0010
0100
0000
1001
0010
0100
0000
1000
0010
0101
0000
1001
0010
0100
0001
,
1000
0011
0100
0000
1001
0010
0101
0000
1000
0010
0100
0000
1001
0010
0100
0000
,
1000
0010
0100
0000
1001
0010
0100
0000
1000
0010
0100
0000
1001
0010
0100
0000
,
1000
0011
0100
0000
1001
0010
0100
0000
1000
0010
0100
0000
1001
0010
0100
0000
,
1000
0010
0100
0000
1001
0010
1100
0000
1000
0010
1101
0000
0001
0010
0100
0001
,
1000
0001
0000
0000
1010
0000
1010
0000
1001
0010
0100
0010
1001
0010
0100
0010
,
1001
0010
0100
0010
1001
0010
0100
0010
1001
0100
0010
0100
1001
0100
0010
0100
,
1001
0100
0010
0100
1001
0100
0010
0100
1001
0010
0001
0010
1001
0100
0001
0100
,
1001
0010
0001
0010
1001
0100
0001
0100
1001
0100
0010
0100
1001
0100
0010
0100
,
1001
0100
0010
0100
1001
0100
0010
0100
1001
0010
0100
0010
1001
0010
0100
0010
,
1001
0010
0100
0010
1001
0010
0100
0010
1100
0001
0100
0010
1100
0001
0100
0010
,
1100
0001
0100
0010
1100
0001
0100
0010
1100
0001
0100
0001
1010
0001
0010
0001
,
1100
0010
0100
0010
1100
0001
1100
0010
1001
0010
1100
0001
0010
0001
0100
0010
,
1100
0001
0000
0000
1001
0000
1001
0000
0110
0000
0110
0000
1011
0000
0000
0000
,
1011
0000
1110
1110
0000
1110
0000
0111
,
1110
0000
0000
0000
1110
0000
0000
0000
0000
0000
0000
0000
0111
0000
0000
0000
0111
0000
0000
0000
1110
0000
0000
0000
0001
0010
0100
1000
0100
0010
0001
1000
,
0110
0110
1011
0000
1011
0000
1110
1110
,
0000
1110
0000
0111
1110
1110
0000
0111
,
0111
0000
0000
0000
1110
0000
0000
0000
0001
0010
0100
1000
0001
0010
0100
1000
0011
0000
1000
0000
0011
0000
0100
0000
1001
0000
0100
0000
0011
0000
0100
0000
,
0011
1000
0101
1000
0011
0100
0011
1000
0101
0010
0101
1000
0011
1000
0101
0010
,
1001
0110
1001
0110
1001
0110
1001
0110
1001
0110
1001
0110
2002
0000
0000
0000
,
0000
0000
0000
0000
,
3203
0000
0000
0000
0000
0000
0000
0320
0000
0000
0000
0000
1031
0000
0100
0000
0010
0000
0001
0000
0100
0000
0010
0000
1000
0000
0010
0000
0100
0000
0001
0000
1000
0000
0100
0000
0002
0000
0000
0000
0000
0000
0000
0000
0000
0000
0003
0000
,
0220
0000
0000
0000
0000
0330
1000
0010
0100
0001
1000
0100
0010
1000
0001
0100
0010
1000
0002
0000
0000
0000
0000
0003
,
0220
0000
0000
0000
0000
0330
0001
0010
0100
0010
0100
1000
0100
0010
0001
1000
0010
0100
0002
0000
0000
0000
0000
0003
,
2020
0000
0000
0000
0000
3030
0100
0010
0001
1000
0100
0010
1000
0010
0100
0001
1000
0100
0020
0000
0000
0000
0000
0030
,
0202
0000
0000
0000
0000
0000
0000
0000
0000
0000
0000
0000
0000
0000
0000
0000
0000
0000
0000
0000
0303
0000
0000
0000
1011
0000
0000
0100
0000
0000
0001
0000
0000
0000
0000
0000
0100
0000
0000
0000
0000
0000
0001
0000
0000
0000
0000
0000
0010
0000
0000
0100
0000
0000
0001
0000
0000
0000
0000
0000
1100
0000
0000
0000
0000
0000
0001
0000
0000
0000
0000
0000
1010
0000
0000
0100
0000
0000
0001
0000
0000
0000
0000
0000
0100
0000
0000
0000
0000
0000
0001
0000
0000
0000
0000
0000
,
1010
0100
0001
0000
0110
0000
0001
0000
0111
1000
0010
0000
1000
0000
0010
0000
0101
1000
0010
0100
1000
0000
0011
0000
1100
0000
1010
0000
0000
0000
0000
0000
,
0220
0000
0000
0330
1001
0000
0100
0000
1010
0000
0102
0000
1000
0000
0010
0000
,
1000
0000
0100
0000
1000
0000
0113
0000
1010
0000
0101
0000
1001
0010
0100
0000
,
1100
0110
1001
0110
1010
0102
1000
0010
,
1000
0000
0103
0000
1001
0000
0100
0000
1110
0000
0000
0010
1100
0010
0000
0000
,
1011
0100
1010
0011
1100
0021
1000
0100
,
1000
0000
0001
0000
1100
0000
0031
0000
1010
0000
0100
0000
1010
0001
0100
0000
,
1101
0010
1001
0100
1010
0102
1000
0010
,
1000
0000
1103
0000
1220
0000
1000
0000
0000
0000
0330
0000
1022
0100
0000
0000
,
1100
0000
1133
0000
1020
0000
0100
0000
1000
0000
0001
0030
1100
0000
0001
0010
,
1000
0000
0101
0000
1020
0000
0001
0000
1000
0000
0001
0000
1230
0001
0010
0000
,
1001
0000
0010
0300
1022
0000
0100
0000
1000
0000
0133
0000
1200
0000
0001
0320
,
1000
0000
0132
0000
1113
0000
0010
0000
1001
0000
0000
0001
1000
0010
1000
0000
,
0100
0000
0100
0000
0000
0000
0000
0000
0020
0000
1131
0000
0010
1000
0100
1000
,
0001
1000
0010
0100
0001
0100
0010
1000
0010
0100
0001
0010
0001
0100
0010
1000
,
0001
0100
0010
1000
0010
1000
0100
1000
0001
1000
0010
0100
0001
0100
0010
1000
,
0010
0100
0001
0010
0001
0100
0010
1000
0001
0100
0010
1000
0010
1000
0100
1000
,
0001
1000
0010
0100
0001
0100
0010
1000
0010
0100
0001
0010
0001
0100
0010
1000
,
0001
0100
0010
1000
0010
1000
0100
1000
0001
1000
0010
0100
0001
0100
0010
1000
,
0010
0100
0001
0010
0001
0100
0010
1000
0001
0100
0010
1000
0011
1000
0110
1000
,
0101
1000
0011
0100
1001
0100
0011
1000
0011
0100
1001
0010
1001
0100
0011
1000
,
0011
0100
0011
1000
0110
1000
0101
1000
0011
0100
1010
0100
1001
0100
0011
1000
,
1010
0100
1001
0010
1001
0100
0011
1000
0011
0100
1010
0100
0011
1000
0110
1000
,
0101
1000
0011
0100
1001
0100
0011
1000
0011
0100
1001
0010
1001
0100
0011
1000
,
0011
0100
0011
1000
0110
1000
0101
1000
0011
0100
1010
0100
1001
0100
0011
1000
,
1010
0100
1001
0010
1001
0100
0011
1000
0011
0100
1010
0100
1001
0100
1000
0100
,
0010
0100
0010
0100
0001
1000
0001
1000
0010
0100
0001
1000
0010
0100
0001
1000
,
0010
0100
0001
0010
1000
0010
0001
0100
0010
1000
0010
0100
0001
1000
0010
0100
,
0002
0000
0000
2003
,
0222
0000
0000
0000
,
0000
0000
0000
0000
,
3333
0000
0000
0000
,
0000
0000
0000
0000
,
0000
0000
0000
0000
;

//---------------dance-single - ----------------
#NOTES:
     dance-single:
     :
     Challenge:
     22:
     1.000,1.000,1.000,0.345,1.000,860.000,239.000,40.000,0.000,49.000:
0000
0000
0000
0000
,
0101
1000
0010
1000
0001
1000
0010
1000
0001
1000
0010
1000
0001
1000
0010
1000
,
0001
1000
0010
1000
0001
1000
0010
1000
0100
0001
0010
1000
0010
0001
1000
0001
,
0100
1000
0010
1000
0100
1000
0010
1000
0100
1000
0010
1000
0100
1000
0010
1000
,
0101
1000
0011
1000
0101
1000
0011
1000
0110
0001
1010
0100
1010
0001
1100
0010
,
0101
1000
0010
1000
0001
1000
0010
1000
0001
1000
0010
1000
0001
1000
0010
1000
,
0001
1000
0010
1000
0001
1000
0010
1000
0100
0001
0010
1000
0110
0001
1000
0001
,
0110
1000
0010
1000
0100
1000
0010
1000
0101
1000
0010
1000
0100
1000
0010
1000
,
0101
1000
0010
1000
0101
1000
0010
1000
0110
0001
1000
0100
0010
0001
1000
0100
,
0011
1000
0011
0100
1010
0001
1100
0001
0100
1000
0001
0000
0110
1000
0001
0000
,
0100
1000
0001
0000
0110
1000
0001
0000
0100
1000
0001
0000
0110
1000
0001
0000
,
0100
1010
0001
0000
0110
1000
0001
0000
0100
1000
0001
0000
0110
1000
0001
0000
,
0100
1000
0001
0000
0110
1000
0001
0000
0100
1000
0011
0000
0110
1000
0001
0010
,
0100
1010
0001
0000
0110
1000
0011
0000
0100
1000
0001
0000
0110
1000
0001
0000
,
0100
1000
0001
0000
0110
1000
0001
0000
0100
1000
0001
0000
0110
1000
0001
0000
,
0100
1010
0001
0000
0110
1000
0001
0000
0100
1000
0001
0000
0110
1000
0001
0000
,
0100
1000
0001
0000
0110
1000
0101
0000
0100
1000
0111
0000
0010
1000
0001
0010
,
0100
0010
0000
0000
1100
0000
1100
0000
0110
1000
0001
1000
0110
1000
0001
1000
,
0110
1000
0001
1000
0110
1000
0001
1000
0110
0001
1000
0001
0110
0001
1000
0001
,
0110
0001
1000
0001
0110
0001
1000
0001
0110
1000
0010
1000
0110
0001
0010
0001
,
0110
1000
0010
1000
0110
0001
0010
0001
0110
0001
1000
0001
0110
0001
1000
0001
,
0110
0001
1000
0001
0110
0001
1000
0001
0110
1000
0001
1000
0110
1000
0001
1000
,
0110
1000
0001
1000
0110
1000
0001
1000
0101
0010
0001
1000
0101
0010
0001
1000
,
0101
0010
0001
1000
0101
0010
0001
1000
0101
0010
0001
0010
1100
0010
1000
0010
,
0101
1000
0001
1000
0101
0010
0101
1000
0110
1000
0101
0010
1000
0010
0001
1000
,
0101
0010
0000
0000
0110
0000
0110
0000
1001
0000
1001
0000
1110
0000
0000
0000
,
1110
0000
1101
1101
0000
1101
0000
1011
,
1101
0000
0000
0000
1101
0000
0000
0000
0000
0000
0000
0000
1011
0000
0000
0000
1011
0000
0000
0000
1101
0000
0000
0000
0010
1000
0001
0100
0001
1000
0010
0100
,
1001
1001
1110
0000
1110
0000
1101
1101
,
0000
1101
0000
1011
1101
1101
0000
1011
,
1011
0000
0000
0000
1101
0000
0000
0000
0010
1000
0001
0100
0010
1000
0001
0100
1010
0000
0100
0000
1010
0000
0001
0000
0110
0000
0001
0000
1010
0000
0001
0000
,
1010
0100
0011
0100
1010
0001
1010
0100
0011
1000
0011
0100
1010
0100
0011
1000
,
0110
1001
0110
1001
0110
1001
0110
1001
0110
1001
0110
1001
0220
0000
0000
0000
,
0000
0000
0000
0000
,
0332
0000
0000
0000
0000
0000
0000
2003
0000
0000
0000
0000
3110
0000
0001
0000
1000
0000
0010
0000
0001
0000
1000
0000
0100
0000
1000
0000
0001
0000
0010
0000
0100
0000
0001
0000
0020
0000
0000
0000
0000
0000
0000
0000
0000
0000
0030
0000
,
2002
0000
0000
0000
0000
3003
0100
1000
0001
0010
0100
0001
1000
0100
0010
0001
1000
0100
0020
0000
0000
0000
0000
0030
,
2002
0000
0000
0000
0000
3003
0010
1000
0001
1000
0001
0100
0001
1000
0010
0100
1000
0001
0020
0000
0000
0000
0000
0030
,
2200
0000
0000
0000
0000
3300
0001
1000
0010
0100
0001
1000
0100
1000
0001
0010
0100
0001
2000
0000
0000
0000
0000
3000
,
0022
0000
0000
0000
0000
0000
0000
0000
0000
0000
0000
0000
0000
0000
0000
0000
0000
0000
0000
0000
0033
0000
0000
0000
1110
0000
0000
0001
0000
0000
0010
0000
0000
0000
0000
0000
0001
0000
0000
0000
0000
0000
0010
0000
0000
0000
0000
0000
1000
0000
0000
0001
0000
0000
0010
0000
0000
0000
0000
0000
0101
0000
0000
0000
0000
0000
0010
0000
0000
0000
0000
0000
1100
0000
0000
0001
0000
0000
0010
0000
0000
0000
0000
0000
0001
0000
0000
0000
0000
0000
0010
0000
0000
0000
0000
0000
,
1100
0001
0010
0000
1001
0000
0010
0000
1011
0100
1000
0000
0100
0000
1000
0000
0011
0100
1000
0001
0100
0000
1010
0000
0101
0000
1100
0000
0000
0000
0000
0000
,
2002
0000
0000
3003
0110
0000
0001
0000
1100
0000
0021
0000
0100
0000
1000
0000
,
0100
0000
0001
0000
0100
0000
1031
0000
1100
0000
0011
0000
0110
1000
0001
0000
,
0101
1001
0110
1001
1100
0021
0100
1000
,
0100
0000
0031
0000
0110
0000
0001
0000
1101
0000
0000
1000
0101
1000
0000
0000
,
1110
0001
1100
1010
0101
2010
0100
0001
,
0100
0000
0010
0000
0101
0000
3010
0000
1100
0000
0001
0000
1100
0010
0001
0000
,
0111
1000
0110
0001
1100
0021
0100
1000
,
0100
0000
0131
0000
2102
0000
0100
0000
0000
0000
3003
0000
2120
0001
0000
0000
,
0101
0000
3131
0000
2100
0000
0001
0000
0100
0000
0010
3000
0101
0000
0010
1000
,
0100
0000
0011
0000
2100
0000
0010
0000
0100
0000
0010
0000
3102
0010
1000
0000
,
0110
0000
1000
0003
2120
0000
0001
0000
0100
0000
3031
0000
0102
0000
0010
2003
,
0100
0000
3021
0000
1131
0000
1000
0000
0110
0000
0000
0010
0100
1000
0100
0000
,
0001
0000
0001
0000
0000
0000
0000
0000
2000
0000
3111
0000
1000
0100
0001
0100
,
0010
0100
1000
0001
0010
0001
1000
0100
1000
0001
0010
1000
0010
0001
1000
0100
,
0010
0001
1000
0100
1000
0100
0001
0100
0010
0100
1000
0001
0010
0001
1000
0100
,
1000
0001
0010
1000
0010
0001
1000
0100
0010
0001
1000
0100
1000
0100
0001
0100
,
0010
0100
1000
0001
0010
0001
1000
0100
1000
0001
0010
1000
0010
0001
1000
0100
,
0010
0001
1000
0100
1000
0100
0001
0100
0010
0100
1000
0001
0010
0001
1000
0100
,
1000
0001
0010
1000
0010
0001
1000
0100
0010
0001
1000
0100
1010
0100
1001
0100
,
0011
0100
1010
0001
0110
0001
1010
0100
1010
0001
0110
1000
0110
0001
1010
0100
,
1010
0001
1010
0100
1001
0100
0011
0100
1010
0001
1100
0001
0110
0001
1010
0100
,
1100
0001
0110
1000
0110
0001
1010
0100
1010
0001
1100
0001
1010
0100
1001
0100
,
0011
0100
1010
0001
0110
0001
1010
0100
1010
0001
0110
1000
0110
0001
1010
0100
,
1010
0001
1010
0100
1001
0100
0011
0100
1010
0001
1100
0001
0110
0001
1010
0100
,
1100
0001
0110
1000
0110
0001
1010
0100
1010
0001
1100
0001
0110
0001
0100
0001
,
1000
0001
1000
0001
0010
0100
0010
0100
1000
0001
0010
0100
1000
0001
0010
0100
,
1000
0001
0010
1000
0100
1000
0010
0001
1000
0100
1000
0001
0010
0100
1000
0001
,
0020
0000
0000
0230
,
2022
0000
0000
0000
,
0000
0000
0000
0000
,
3333
0000
0000
0000
,
0000
0000
0000
0000
,
0000
0000
0000
0000
;

//---------------dance-solo - ----------------
#NOTES:
     dance-solo:
     :
     Hard:
     21:
     1.000,1.000,1.000,0.345,1.000,860.000,239.000,40.000,0.000,46.000:
000000
000000
000000
000000
,
101000
000100
000001
000100
010000
000100
000001
000100
010000
000100
000001
000100
001000
000100
000001
000100
,
001000
000100
000001
000100
001000
000100
000001
010000
100000
001000
000001
000100
000001
001000
000100
001000
,
100000
000100
000001
000100
100000
000100
000001
001000
100000
001000
000001
001000
100000
000100
000001
001000
,
110000
000100
010001
000100
101000
000100
001001
000100
100001
010000
000101
100000
000101
001000
100100
000001
,
101000
000100
000001
010000
001000
000100
000001
010000
001000
000100
000001
000100
001000
010000
000001
000100
,
001000
000100
000001
000100
001000
000100
000001
000100
100000
001000
000001
000100
100001
010000
000100
001000
,
100001
000100
000001
000100
100000
000100
000001
000100
101000
000100
000001
000100
100000
000100
000001
000100
,
110000
000100
000001
000100
110000
000100
000001
000100
100001
001000
000100
100000
000001
010000
000100
100000
,
001001
000100
001001
100000
000101
001000
100100
010000
100000
000100
001000
000000
100001
000100
001000
000000
,
100000
000100
001000
000000
100001
000100
010000
000000
100000
000100
001000
000000
100001
000100
001000
000000
,
100000
000101
001000
000000
100001
000010
001000
000000
100000
000100
001000
000000
100001
000100
001000
000000
,
100000
000100
001000
000000
100001
000010
001000
000000
100000
000100
001001
000000
100001
000100
001000
000001
,
100000
000101
001000
000000
100001
000010
001001
000000
100000
000100
001000
000000
100001
000100
001000
000000
,
100000
000100
001000
000000
100001
000010
001000
000000
100000
000100
001000
000000
100001
000100
001000
000000
,
100000
000101
001000
000000
100001
000010
001000
000000
100000
000100
001000
000000
100001
000010
001000
000000
,
100000
000100
001000
000000
100001
000100
101000
000000
100000
000100
110001
000000
000001
000010
001000
000001
,
100000
000001
000000
000000
100100
000000
100100
000000
100001
000100
001000
000010
100001
010000
001000
010000
,
100001
000100
001000
000100
100001
000100
001000
000100
100001
001000
000010
001000
100001
001000
000100
001000
,
100001
001000
000010
001000
100001
001000
000100
001000
100001
000100
000001
010000
100001
001000
000001
001000
,
100001
000100
000001
000100
100001
001000
000001
001000
100001
001000
000010
001000
100001
010000
000100
010000
,
100001
001000
000100
001000
100001
001000
000100
010000
100001
000100
010000
000010
100001
000100
001000
000100
,
100001
010000
001000
000100
100001
000010
001000
000010
101000
000001
001000
000010
101000
000001
000100
010000
,
101000
000001
001000
000100
101000
000001
001000
000010
101000
000001
010000
000001
101000
000001
000100
000001
,
101000
000100
001000
000010
110000
000001
110000
000100
100001
000100
101000
000001
000100
000001
001000
000010
,
101000
000001
000000
000000
100001
000000
100001
000000
010100
000000
010100
000000
100101
000000
000000
000000
,
100101
000000
101100
110100
000000
101100
000000
001011
,
110100
000000
000000
000000
101010
000000
000000
000000
000000
000000
000000
000000
001101
000000
000000
000000
010101
000000
000000
000000
110100
000000
000000
000000
000001
000010
001000
100000
001000
000010
000001
100000
,
001010
001100
100101
000000
101001
000000
110100
110100
,
000000
101100
000000
001101
101100
101100
000000
001101
,
010101
000000
000000
000000
101010
000000
000000
000000
000001
000010
001000
100000
000001
000100
001000
100000
000101
000000
100000
000000
000101
000000
001000
000000
100001
000000
001000
000000
000101
000000
001000
000000
,
000101
100000
001001
100000
000011
001000
000011
100000
001001
000100
010001
100000
000101
100000
010001
000100
,
100001
001100
100001
001100
100001
001100
100001
001100
100001
010100
100001
010100
200002
000000
000000
000000
,
000000
000000
000000
000000
,
302003
000000
000000
000000
000000
000000
000000
003200
000000
000000
000000
000000
100301
000000
010000
000000
000100
000000
000001
000000
001000
000000
000100
000000
100000
000000
000100
000000
001000
000000
000001
000000
100000
000000
010000
000000
000002
000000
000000
000000
000000
000000
000000
000000
000000
000000
000000
000003
,
002200
000000
000000
000000
000000
000000
000000
000000
000000
000000
003300
000000
100000
000000
000100
000000
001000
000000
000001
000000
100000
000000
001000
000000
000100
000000
100000
000000
000001
000000
001000
000000
000100
000000
100000
000000
000002
000000
000000
000000
000000
000000
000000
000000
000000
000000
000000
000003
,
002200
000000
000000
000000
000000
000000
000000
000000
000000
000000
003300
000000
000001
000000
000100
000000
001000
000000
000100
000000
001000
000000
100000
000000
001000
000000
000100
000000
000001
000000
100000
000000
000100
000000
001000
000000
000002
000000
000000
000000
000000
000000
000000
000000
000000
000000
000000
000003
,
200200
000000
000000
000000
000000
000000
000000
000000
000000
000000
300300
000000
001000
000000
000100
000000
000001
000000
100000
000000
001000
000000
000100
000000
100000
000000
000100
000000
001000
000000
000001
000000
100000
000000
001000
000000
000200
000000
000000
000000
000000
000000
000000
000000
000000
000000
000000
000300
,
002002
000000
000000
000000
000000
000000
003003
000000
100011
001000
000001
000000
010000
000000
000001
000000
000100
001000
000001
000000
101000
000000
000001
000000
100100
001000
000001
000000
010000
000000
000001
000000
,
100100
001000
000001
000000
001100
000000
000001
000000
010011
100000
000100
000000
100000
000000
000100
000000
001001
100000
000100
001000
100000
000000
000011
000000
110000
000000
100100
000000
000000
000000
000000
000000
,
002200
000000
000000
003300
100001
000000
001000
000000
100100
000000
010002
000000
100000
000000
001000
000000
,
100000
000000
000000
000000
010000
000000
000000
000000
100000
000000
000000
000003
010010
000000
000000
000000
100100
000000
000000
000000
001001
000000
000000
000000
100001
000000
000010
000000
001000
000000
000000
000000
,
101000
010100
100001
010010
100100
001002
100000
000010
,
100000
000000
000000
000003
001000
000000
000000
000000
100001
000000
000000
000000
001000
000000
000000
000000
110100
000000
000000
000000
000000
000000
000010
000000
101000
000000
000100
000000
000000
000000
000000
000000
,
100101
001000
100100
000011
101000
000201
100000
010000
,
100000
000000
000000
000000
000001
000000
000000
000000
110000
000000
000000
000300
000001
000000
000000
000000
100010
000000
000000
000000
001000
000000
000000
000000
100010
000000
000001
000000
001000
000000
000000
000000
,
110001
000100
100001
001000
100010
001002
100000
010000
,
100000
000000
000000
000003
100010
000000
000000
000000
102200
000000
000000
000000
100000
000000
000000
000000
000000
000000
000000
000000
003300
000000
000000
000000
100202
000000
001000
000000
000000
000000
000000
000000
,
110000
000000
000000
000000
110303
000000
000000
000000
100200
000000
000000
000000
001000
000000
000000
000000
100000
000000
000000
000000
000001
000300
000000
000000
110000
000000
000000
000000
000001
000000
000010
000000
,
100000
000000
000000
000000
001001
000000
000000
000000
100200
000000
000000
000000
000001
000000
000000
000000
100000
000000
000000
000000
000001
000000
000000
000300
102000
000000
000001
000000
000010
000000
000000
000000
,
100001
000000
000100
003000
100202
000000
001000
000000
100000
000000
010303
000000
102000
000000
000001
003200
,
100000
000000
010302
000000
101013
000000
000100
000000
100001
000000
000000
000001
100000
000010
100000
000000
,
001000
000000
001000
000000
000000
000000
000000
000000
000200
000000
110301
000000
000010
100000
001000
100000
,
000001
100000
000010
001000
000001
010000
000010
100000
000100
001000
000001
000100
000001
001000
000010
100000
,
000001
010000
000100
100000
000100
100000
001000
100000
000001
100000
000010
001000
000001
010000
000100
100000
,
000100
001000
000001
000010
000001
010000
000100
100000
000001
001000
000100
100000
000010
100000
001000
100000
,
000001
100000
000100
010000
000001
001000
000100
100000
000100
001000
000001
000010
000001
010000
000100
100000
,
000001
010000
000100
100000
000010
100000
001000
100000
000001
100000
000100
001000
000001
010000
000010
100000
,
000100
001000
000001
010000
000001
001000
000010
100000
000001
010000
000010
100000
000101
100000
010100
100000
,
001001
100000
000011
001000
100001
010000
000101
100000
000101
001000
100001
000100
100001
001000
000101
100000
,
000011
010000
000101
100000
010010
100000
001001
100000
000011
010000
100100
001000
100001
010000
000101
100000
,
101000
010000
100001
000100
100001
001000
000011
100000
000101
010000
100010
001000
000101
100000
001010
100000
,
001001
100000
000101
010000
100001
001000
000110
100000
000101
001000
100001
000100
100001
010000
000101
100000
,
000011
001000
000101
100000
010010
100000
001001
100000
000101
010000
100100
001000
100001
001000
000011
100000
,
100100
010000
100001
000100
100001
001000
000101
100000
000110
010000
100100
001000
100001
001000
100000
010000
,
000100
001000
000100
001000
000001
100000
000001
100000
000010
001000
000001
100000
000100
010000
000001
100000
,
000100
001000
000001
000010
100000
010000
000001
001000
000100
100000
000100
001000
000001
100000
000100
010000
,
000002
000000
000000
200003
,
002202
000000
000000
000000
,
000000
000000
000000
000000
,
303303
000000
000000
000000
,
000000
000000
000000
000000
,
000000
000000
000000
000000
;
